Monday, June 18, 2018

Dance Legacy Volume 018

Mixcloud: 
Album Image: 
V.E.C.T.O.R. - Dance Legacy Volume 018
Album Rating: 
Track Listing: 

1. Tony Rohr - Intro

2. Tony Rohr - My Mind Is Going Dub

3. Sin Sin - Tunnel (Kalden Bess Remix)

4. John 00 Fleming - Ashoka (Part 1)

5. Henry Cullen & Marcello Perri - Detached

6. John 00 Fleming - The Fires Of Chameleon

7. Nine Inch Nails - Right Where It Belongs (00.db Remix)

8. Artifact303 - Delirium

9. John 00 Fleming Feat. The Digital Blonde - The Main Voyage

Cue Sheet: 

PERFORMER "V.E.C.T.O.R."
TITLE "Dance Legacy Volume 018"
FILE "V.E.C.T.O.R. - Dance Legacy Volume 018.mp3" MP3

TRACK 01 AUDIO
PERFORMER "Tony Rohr"
TITLE "Intro"
INDEX 01 00:00:00

TRACK 02 AUDIO
PERFORMER "Tony Rohr"
TITLE "My Mind Is Going Dub"
INDEX 01 01:02:62

TRACK 03 AUDIO
PERFORMER "Sin Sin"
TITLE "Tunnel (Kalden Bess Remix)"
INDEX 01 08:56:34

TRACK 04 AUDIO
PERFORMER "John 00 Fleming"
TITLE "Ashoka (Part 1)"
INDEX 01 15:17:32

TRACK 05 AUDIO
PERFORMER "Henry Cullen & Marcello Perri"
TITLE "Detached"
INDEX 01 22:51:66

TRACK 06 AUDIO
PERFORMER "John 00 Fleming"
TITLE "The Fires Of Chameleon"
INDEX 01 28:26:13

TRACK 07 AUDIO
PERFORMER "Nine Inch Nails"
TITLE "Right Where It Belongs (00.db Remix)"
INDEX 01 35:37:90

TRACK 08 AUDIO
PERFORMER "Artifact303"
TITLE "Delirium"
INDEX 01 43:12:22

TRACK 09 AUDIO
PERFORMER "John 00 Fleming Feat. The Digital Blonde"
TITLE "The Main Voyage"
INDEX 01 51:51:63

Rate Me On Mediography.by

Like Me On Facebook

Follow Me On Twitter

Follow us on Twitter