Monday, August 20, 2018

Dance Legacy Volume 017

Mixcloud: 
Album Image: 
V.E.C.T.O.R. - Dance Legacy Volume 017
Track Listing: 

1. Super8 & Tab Feat. Julie Thompson - My Enemy (Rank 1 Remix)
2. John O'Callaghan & Timmy & Tommy - Talk to Me (Original Mix)
3. The Thrillseekers Vs. M.I.K.E. - Effectual (Deep Voices Remix)
4. Britney Spears - Hold It Against Me (Toy Armada Club Remix)
5. Snatt & Vix Vs. In Progress - Sunride (Ronski Speed Remix)
6. Dogzilla - Without You (Rafael Frost Remix)
7. Illitheas - Perfect Day (Original Mix)
8. Beat Service Feat. Emma Lock - Not Out (Kaimo K Remix)
9. Andy Blueman - Florescence (Epic Mix)

Cue Sheet: 

PERFORMER "V.E.C.T.O.R."
TITLE "Dance Legacy Volume 017"
FILE "V.E.C.T.O.R. - Dance Legacy Volume 017.mp3" MP3

TRACK 01 AUDIO
PERFORMER "Super8 & Tab Feat. Julie Thompson"
TITLE "My Enemy (Rank 1 Remix)"
INDEX 01 00:00:00

TRACK 02 AUDIO
PERFORMER "John O'Callaghan & Timmy & Tommy"
TITLE "Talk to Me (Original Mix)"
INDEX 01 07:28:12

TRACK 03 AUDIO
PERFORMER "The Thrillseekers Vs. M.I.K.E."
TITLE "Effectual (Deep Voices Remix)"
INDEX 01 14:21:50

TRACK 04 AUDIO
PERFORMER "Britney Spears"
TITLE "Hold It Against Me (Toy Armada Club Remix)"
INDEX 01 18:59:58

TRACK 05 AUDIO
PERFORMER "Snatt & Vix Vs. In Progress"
TITLE "Sunride (Ronski Speed Remix)"
INDEX 01 24:33:07

TRACK 06 AUDIO
PERFORMER "Dogzilla"
TITLE "Without You (Rafael Frost Remix)"
INDEX 01 31:15:16

TRACK 07 AUDIO
PERFORMER "Illitheas"
TITLE "Perfect Day (Original Mix)"
INDEX 01 38:07:43

TRACK 08 AUDIO
PERFORMER "Beat Service Feat. Emma Lock"
TITLE "Not Out (Kaimo K Remix)"
INDEX 01 44:34:10

TRACK 09 AUDIO
PERFORMER "Andy Blueman"
TITLE "Florescence (Epic Mix)"
INDEX 01 50:50:66

Rate Me On Mediography.by

Like Me On Facebook

Follow Me On Twitter

Follow us on Twitter