Monday, June 18, 2018

Dance Legacy Volume 016

Mixcloud: 
Album Image: 
V.E.C.T.O.R. - Dance Legacy Volume 016
Track Listing: 

1. Madonna - Beautiful Stranger (Calderone Club Mix)
2. Age of Love - The Age of Love (Wippenberg Remix)
3. Britney Spears - Till the World Ends (Friscia and Lamboy Club Remix)
4. John O'Callaghan & Timmy & Tommy - Talk to Me (Orjan Nilsen Trance Mix)
5. First State Feat. Sarah Howells - Reverie (Dash Berlin Remix)
6. Alpha Duo & James Kitcher Feat. Emma Lock - Beautiful Dream (Original Mix)
7. Gareth Emery Vs. Markus Schulz Feat. Jennifer Rene - Not the Same Citadel (Armin van Buuren Mashup)
8. Jozhy K & Angel - Perfect Woman (Marc Simz Vs. Aerofoil Remix)

Cue Sheet: 

PERFORMER "V.E.C.T.O.R."
TITLE "Dance Legacy Volume 016"
FILE "V.E.C.T.O.R. - Dance Legacy Volume 016.mp3" MP3

TRACK 01 AUDIO
PERFORMER "Madonna"
TITLE "Beautiful Stranger (Calderone Club Mix)"
INDEX 01 00:00:00

TRACK 02 AUDIO
PERFORMER "Age of Love"
TITLE "The Age of Love (Wippenberg Remix)"
INDEX 01 09:50:08

TRACK 03 AUDIO
PERFORMER "Britney Spears"
TITLE "Till the World Ends (Friscia and Lamboy Club Remix)"
INDEX 01 16:57:56

TRACK 04 AUDIO
PERFORMER "John O'Callaghan & Timmy & Tommy"
TITLE "Talk to Me (Orjan Nilsen Trance Mix)"
INDEX 01 25:57:25

TRACK 05 AUDIO
PERFORMER "First State Feat. Sarah Howells"
TITLE "Reverie (Dash Berlin Remix)"
INDEX 01 32:56:08

TRACK 06 AUDIO
PERFORMER "Alpha Duo & James Kitcher Feat. Emma Lock"
TITLE "Beautiful Dream (Original Mix)"
INDEX 01 40:47:72

TRACK 07 AUDIO
PERFORMER "Gareth Emery Vs. Markus Schulz Feat. Jennifer Rene"
TITLE "Not the Same Citadel (Armin van Buuren Mashup)"
INDEX 01 48:52:29

TRACK 08 AUDIO
PERFORMER "Jozhy K & Angel"
TITLE "Perfect Woman (Marc Simz Vs. Aerofoil Remix)"
INDEX 01 54:28:66

Rate Me On Mediography.by

Like Me On Facebook

Follow Me On Twitter

Follow us on Twitter