Monday, December 10, 2018

Dance Legacy Volume 015

Mixcloud: 
Album Image: 
V.E.C.T.O.R. - Dance Legacy Volume 015
Track Listing: 

1. Faithless Feat. Dido - Feelin Good (Kyau & Albert Remix)
2. Britney Spears - Hold It Against Me (NYC Tribal Remix)
3. Orjan Nilsen - Agnus
4. Strobe - Liebe (Orjan Nilsen Remix)
5. Bobina Vs. PPK - Resurection 2010
6. Marcel Woods - Tomorrow (Original Mix)
7. Hans Zimmer - Time (Orkideas Awake Mix)
8. Marc Simz - Forbidden City (Original Mix)
9. Cramp - Prelude (Extended Mix)
10. Air Night - Remember (SylverMay Remix)

Cue Sheet: 

PERFORMER "V.E.C.T.O.R."
TITLE "Dance Legacy Volume 015"
FILE "V.E.C.T.O.R. - Dance Legacy Volume 015.mp3" MP3

TRACK 01 AUDIO
PERFORMER "Faithless Feat. Dido"
TITLE "Feelin Good (Kyau & Albert Remix)"
INDEX 01 00:00:00

TRACK 02 AUDIO
PERFORMER "Britney Spears"
TITLE "Hold It Against Me (NYC Tribal Remix)"
INDEX 01 06:34:82

TRACK 03 AUDIO
PERFORMER "Orjan Nilsen"
TITLE "Agnus"
INDEX 01 11:45:04

TRACK 04 AUDIO
PERFORMER "Strobe"
TITLE "Liebe (Orjan Nilsen Remix)"
INDEX 01 17:24:37

TRACK 05 AUDIO
PERFORMER "Bobina Vs. PPK"
TITLE "Resurection 2010"
INDEX 01 24:08:87

TRACK 06 AUDIO
PERFORMER "Marcel Woods"
TITLE "Tomorrow (Original Mix)"
INDEX 01 29:09:71

TRACK 07 AUDIO
PERFORMER "Hans Zimmer"
TITLE "Time (Orkideas Awake Mix)"
INDEX 01 36:40:19

TRACK 08 AUDIO
PERFORMER "Marc Simz"
TITLE "Forbidden City (Original Mix)"
INDEX 01 43:13:35

TRACK 09 AUDIO
PERFORMER "Cramp"
TITLE "Prelude (Extended Mix)"
INDEX 01 50:38:44

TRACK 10 AUDIO
PERFORMER "Air Night"
TITLE "Remember (SylverMay Remix)"
INDEX 01 56:09:51

Rate Me On Mediography.by

Like Me On Facebook

Follow Me On Twitter

Follow us on Twitter