Monday, December 10, 2018

Dance Legacy Volume 014

Mixcloud: 
Album Image: 
V.E.C.T.O.R. - Dance Legacy Volume 014
Track Listing: 

1. Marcus Schössow - Mr. White (Original Mix)
2. Glenn Morrison - Blue Skies with Linda (Original Mix)
3. DJ Miss Wendy - Beat Time (Extended Version)
4. Arty - Twilight Tonight (Arty Remode)
5. Filo & Peri Feat. Audrey Gallagher - This Night (Alex M.O.R.P.H. Remix)
6. Bart Claessen - Hartseer (Original Mix)
7. The Thrillseekers - Savanna (Alexander Popov Remix)
8. Above & Beyond & Gareth Emery Pres. Oceanlab - On a Good Day (Metropolis) (Extended Mix)
9. Giuseppe Ottaviani and Walsh & McAuley Feat. Emma Lock - Ready (Original Mix)

Cue Sheet: 

PERFORMER "V.E.C.T.O.R."
TITLE "Dance Legacy Volume 014"
FILE "V.E.C.T.O.R. - Dance Legacy Volume 014.mp3" MP3

TRACK 01 AUDIO
PERFORMER "Marcus Schössow"
TITLE "Mr. White (Original Mix)"
INDEX 01 00:00:00

TRACK 02 AUDIO
PERFORMER "Glenn Morrison"
TITLE "Blue Skies with Linda (Original Mix)"
INDEX 01 06:06:16

TRACK 03 AUDIO
PERFORMER "DJ Miss Wendy"
TITLE "Beat Time (Extended Version)"
INDEX 01 13:01:70

TRACK 04 AUDIO
PERFORMER "Arty"
TITLE "Twilight Tonight (Arty Remode)"
INDEX 01 19:49:68

TRACK 05 AUDIO
PERFORMER "Filo & Peri Feat. Audrey Gallagher"
TITLE "This Night (Alex M.O.R.P.H. Remix)"
INDEX 01 27:20:73

TRACK 06 AUDIO
PERFORMER "Bart Claessen"
TITLE "Hartseer (Original Mix)"
INDEX 01 34:18:40

TRACK 07 AUDIO
PERFORMER "The Thrillseekers"
TITLE "Savanna (Alexander Popov Remix)"
INDEX 01 42:08:90

TRACK 08 AUDIO
PERFORMER "Above & Beyond & Gareth Emery Pres. Oceanlab"
TITLE "On a Good Day (Metropolis) (Extended Mix)"
INDEX 01 48:30:26

TRACK 09 AUDIO
PERFORMER "Giuseppe Ottaviani and Walsh & McAuley Feat. Emma Lock"
TITLE "Ready (Original Mix)"
INDEX 01 55:09:11

Rate Me On Mediography.by

Like Me On Facebook

Follow Me On Twitter

Follow us on Twitter