Monday, August 20, 2018

Dance Legacy Volume 013

Mixcloud: 
Album Image: 
V.E.C.T.O.R. - Dance Legacy Volume 013
Track Listing: 

1. Mariah Carey - Auld Lang Syne (The New Year's Anthem) (Johnny Vicious Warehouse Mix)
2. Faithless - Tweak Your Nipple (Tiesto Remix)
3. Faithless - Sun To Me (Alex M.O.R.P.H. Remix)
4. Shogun Feat. Emma Lock - Run to My Rescue (Original Mix)
5. DJ Governor - Shades of Grey
6. Gaia - Aisha (Original Mix)
7. Kasino - Stay Tonight (Extended Mix)
8. U2 - New Year's Day (Less Vocal Extended Dub)
9. Ferry Corsten - Sweet Sorrow (Extended Album Mix)

Cue Sheet: 

PERFORMER "V.E.C.T.O.R."
TITLE "Dance Legacy Volume 013"
FILE "V.E.C.T.O.R. - Dance Legacy Volume 013.mp3" MP3

TRACK 01 AUDIO
PERFORMER "Mariah Carey"
TITLE "Auld Lang Syne (The New Year's Anthem) (Johnny Vicious Warehouse Mix)"
INDEX 01 00:00:00

TRACK 02 AUDIO
PERFORMER "Faithless"
TITLE "Tweak Your Nipple (Tiesto Remix)"
INDEX 01 05:31:88

TRACK 03 AUDIO
PERFORMER "Faithless"
TITLE "Sun To Me (Alex M.O.R.P.H. Remix)"
INDEX 01 11:53:18

TRACK 04 AUDIO
PERFORMER "Shogun Feat. Emma Lock"
TITLE "Run to My Rescue (Original Mix)"
INDEX 01 18:47:66

TRACK 05 AUDIO
PERFORMER "DJ Governor"
TITLE "Shades of Grey"
INDEX 01 25:30:37

TRACK 06 AUDIO
PERFORMER "Gaia"
TITLE "Aisha (Original Mix)"
INDEX 01 31:41:51

TRACK 07 AUDIO
PERFORMER "Kasino"
TITLE "Stay Tonight (Extended Mix)"
INDEX 01 38:54:05

TRACK 08 AUDIO
PERFORMER "U2"
TITLE "New Year's Day (Less Vocal Extended Dub)"
INDEX 01 45:13:49

TRACK 09 AUDIO
PERFORMER "Ferry Corsten"
TITLE "Sweet Sorrow (Extended Album Mix)"
INDEX 01 51:54:73

Rate Me On Mediography.by

Like Me On Facebook

Follow Me On Twitter

Follow us on Twitter