Monday, June 18, 2018

Dance Legacy Volume 012

Mixcloud: 
Album Image: 
V.E.C.T.O.R. - Dance Legacy Volume 012
Track Listing: 

1. Sander van Doorn - Intro (XX Booty Mix)
2. Mariah Carey - Auld Lang Syne (The New Year's Anthem) (Ralphi Rosario Traditional Club Mix)
3. Sarah McLachlan - The First Noel (Dash Berlin Remix)
4. Marscruiser - Not Alone Tonight (Blake Jarrell Club Mix)
5. Markus Schulz Feat. Justine Suissa - Perception (Original Mix)
6. Faithless - Not Going Home (Armin van Buuren Remix)
7. Gareth Emery Feat. Lucy Saunders - Sanctuary (Club Mix)
8. Giuseppe Ottaviani and Walsh & McAuley Feat. Emma Lock - Ready (Walsh & McAuley Remix)
9. Gaia - Aisha (Ashley Wallbridge Remix)

Cue Sheet: 

PERFORMER "V.E.C.T.O.R."
TITLE "Dance Legacy Volume 012"
FILE "V.E.C.T.O.R. - Dance Legacy Volume 012.mp3" MP3

TRACK 01 AUDIO
PERFORMER "Sander van Doorn"
TITLE "Intro (XX Booty Mix)"
INDEX 01 00:00:00

TRACK 02 AUDIO
PERFORMER "Mariah Carey"
TITLE "Auld Lang Syne (The New Year's Anthem) (Ralphi Rosario Traditional Club Mix)"
INDEX 01 05:13:74

TRACK 03 AUDIO
PERFORMER "Sarah McLachlan"
TITLE "The First Noel (Dash Berlin Remix)"
INDEX 01 11:51:70

TRACK 04 AUDIO
PERFORMER "Marscruiser"
TITLE "Not Alone Tonight (Blake Jarrell Club Mix)"
INDEX 01 17:49:74

TRACK 05 AUDIO
PERFORMER "Markus Schulz Feat. Justine Suissa"
TITLE "Perception (Original Mix)"
INDEX 01 22:22:00

TRACK 06 AUDIO
PERFORMER "Faithless"
TITLE "Not Going Home (Armin van Buuren Remix)"
INDEX 01 32:31:70

TRACK 07 AUDIO
PERFORMER "Gareth Emery Feat. Lucy Saunders"
TITLE "Sanctuary (Club Mix)"
INDEX 01 39:00:73

TRACK 08 AUDIO
PERFORMER "Giuseppe Ottaviani and Walsh & McAuley Feat. Emma Lock"
TITLE "Ready (Walsh & McAuley Remix)"
INDEX 01 45:48:78

TRACK 09 AUDIO
PERFORMER "Gaia"
TITLE "Aisha (Ashley Wallbridge Remix)"
INDEX 01 51:41:62

Rate Me On Mediography.by

Like Me On Facebook

Follow Me On Twitter

Follow us on Twitter