Monday, December 10, 2018

Dance Legacy Volume 011

Mixcloud: 
Album Image: 
V.E.C.T.O.R. - Dance Legacy Volume 011
Track Listing: 

1. Hans Zimmer & James Newton Howard Vs. Rank 1 Vs. Arnej - Why So Serious? Vs. L.E.D. There Be Light Vs. Dust in the Wind A.K.A. Smile When Your L.E.D. Dust Me (Dominik Di Neo Re-Edit)
2. Eminem & Rihanna - Love the Way You Lie (Rafael Lelis Private Dub)
3. Sol Noir - Superstring (Nicky Romero Remix)
4. Junior Vasquez - X '99 (Club 69 Future Mix)
5. Abel Ramos - Crash the Disco (Original Mix)
6. Armin van Buuren Vs. Sophie Ellis-Bextor - Not Giving Up on Love (Dash Berlin 4AM Mix)
7. Armin van Buuren Feat. Sharon den Adel - In and Out of Love (Richard Durand Remix)
8. Bolier & Coenraad - Mighty Ducks
9. Re:Locate - Showdown

Cue Sheet: 

PERFORMER "V.E.C.T.O.R."
TITLE "Dance Legacy Volume 011"
FILE "V.E.C.T.O.R. - Dance Legacy Volume 011.mp3" MP3

TRACK 01 AUDIO
PERFORMER "Hans Zimmer & James Newton Howard Vs. Rank 1 Vs. Arnej"
TITLE "Why So Serious? Vs. L.E.D. There Be Light Vs. Dust in the Wind A.K.A. Smile When Your L.E.D. Dust Me (Dominik Di Neo Re-Edit)"
INDEX 01 00:00:00

TRACK 02 AUDIO
PERFORMER "Eminem & Rihanna"
TITLE "Love the Way You Lie (Rafael Lelis Private Dub)"
INDEX 01 07:58:43

TRACK 03 AUDIO
PERFORMER "Sol Noir"
TITLE "Superstring (Nicky Romero Remix)"
INDEX 01 14:46:70

TRACK 04 AUDIO
PERFORMER "Junior Vasquez"
TITLE "X '99 (Club 69 Future Mix)"
INDEX 01 18:26:50

TRACK 05 AUDIO
PERFORMER "Abel Ramos"
TITLE "Crash the Disco (Original Mix)"
INDEX 01 29:46:32

TRACK 06 AUDIO
PERFORMER "Armin van Buuren Vs. Sophie Ellis-Bextor"
TITLE "Not Giving Up on Love (Dash Berlin 4AM Mix)"
INDEX 01 35:30:95

TRACK 07 AUDIO
PERFORMER "Armin van Buuren Feat. Sharon den Adel"
TITLE "In and Out of Love (Richard Durand Remix)"
INDEX 01 41:58:36

TRACK 08 AUDIO
PERFORMER "Bolier & Coenraad"
TITLE "Mighty Ducks"
INDEX 01 48:07:71

TRACK 09 AUDIO
PERFORMER "Re:Locate"
TITLE "Showdown"
INDEX 01 53:07:03

Rate Me On Mediography.by

Like Me On Facebook

Follow Me On Twitter

Follow us on Twitter