Thursday, October 18, 2018

Dance Legacy Volume 010

Mixcloud: 
Album Image: 
V.E.C.T.O.R. - Dance Legacy Volume 010
Track Listing: 

1. Armin van Buuren Feat. Susana - Desiderium 207 & Mirage (Extended Version)
2. Shogun Feat. Emma Lock - Imprisoned (Original Mix)
3. Shogun Feat. Emma Lock - Save Me (Dub Mix)
4. Cerf, Mitiska & Jaren - You Never Said (Dash Berlin Remix)
5. Randy Katana - Another Wave
6. Sander van Doorn - Daddyrock (Original Mix)
7. Joop - The Future (Original Mix)
8. Mr Sam - Lyteo (Rank 1 Remix)
9. Randy Katana - Pleasure Island (Dub Mix)

Cue Sheet: 

PERFORMER "V.E.C.T.O.R."
TITLE "Dance Legacy Volume 010"
FILE "V.E.C.T.O.R. - Dance Legacy Volume 010.mp3" MP3

TRACK 01 AUDIO
PERFORMER "Armin van Buuren Feat. Susana"
TITLE "Desiderium 207 & Mirage (Extended Version)"
INDEX 01 00:00:00

TRACK 02 AUDIO
PERFORMER "Shogun Feat. Emma Lock"
TITLE "Imprisoned (Original Mix)"
INDEX 01 09:19:91

TRACK 03 AUDIO
PERFORMER "Shogun Feat. Emma Lock"
TITLE "Save Me (Dub Mix)"
INDEX 01 15:39:04

TRACK 04 AUDIO
PERFORMER "Cerf, Mitiska & Jaren"
TITLE "You Never Said (Dash Berlin Remix)"
INDEX 01 22:23:55

TRACK 05 AUDIO
PERFORMER "Randy Katana"
TITLE "Another Wave"
INDEX 01 29:46:48

TRACK 06 AUDIO
PERFORMER "Sander van Doorn"
TITLE "Daddyrock (Original Mix)"
INDEX 01 35:54:62

TRACK 07 AUDIO
PERFORMER "Joop"
TITLE "The Future (Original Mix)"
INDEX 01 41:06:36

TRACK 08 AUDIO
PERFORMER "Mr Sam"
TITLE "Lyteo (Rank 1 Remix)"
INDEX 01 47:01:88

TRACK 09 AUDIO
PERFORMER "Randy Katana"
TITLE "Pleasure Island (Dub Mix)"
INDEX 01 52:18:46

Rate Me On Mediography.by

Like Me On Facebook

Follow Me On Twitter

Follow us on Twitter