Monday, August 20, 2018

Dance Legacy Volume 009

Mixcloud: 
Album Image: 
V.E.C.T.O.R. - Dance Legacy Volume 009
Track Listing: 

1. Madonna - Ray of Light (HV2 Elevation Remix)
2. Solarstone Feat. Elizabeth Fields - Part of Me (Thrillseekers Remix)
3. Beat Service Feat. Emma Lock - Cut and Run (Dub Mix)
4. Beat Service Feat. Emma Lock - Hiding to Nothing (Xtigma Remix)
5. Shogun Feat. Emma Lock - Save Me (Stoneface & Terminal Vocal Mix)
6. Stoneface & Terminal - Blueprint (Club Mix)
7. Stoneface & Terminal - Stardust (Club Mix)
8. Armin van Buuren Vs. Ferry Corsten - Minack (Extended Version)
9. Dash Berlin - Till the Sky Falls Down (Arctic Moon Mix)

Cue Sheet: 

PERFORMER "V.E.C.T.O.R."
TITLE "Dance Legacy Volume 009"
FILE "V.E.C.T.O.R. - Dance Legacy Volume 009.mp3" MP3

TRACK 01 AUDIO
PERFORMER "Madonna"
TITLE "Ray of Light (HV2 Elevation Remix)"
INDEX 01 00:00:00

TRACK 02 AUDIO
PERFORMER "Solarstone Feat. Elizabeth Fields"
TITLE "Part of Me (Thrillseekers Remix)"
INDEX 01 07:21:05

TRACK 03 AUDIO
PERFORMER "Beat Service Feat. Emma Lock"
TITLE "Cut and Run (Dub Mix)"
INDEX 01 14:10:20

TRACK 04 AUDIO
PERFORMER "Beat Service Feat. Emma Lock"
TITLE "Hiding to Nothing (Xtigma Remix)"
INDEX 01 20:45:75

TRACK 05 AUDIO
PERFORMER "Shogun Feat. Emma Lock"
TITLE "Save Me (Stoneface & Terminal Vocal Mix)"
INDEX 01 27:12:25

TRACK 06 AUDIO
PERFORMER "Stoneface & Terminal"
TITLE "Blueprint (Club Mix)"
INDEX 01 33:49:85

TRACK 07 AUDIO
PERFORMER "Stoneface & Terminal"
TITLE "Stardust (Club Mix)"
INDEX 01 40:23:15

TRACK 08 AUDIO
PERFORMER "Armin van Buuren Vs. Ferry Corsten"
TITLE "Minack (Extended Version)"
INDEX 01 45:29:34

TRACK 09 AUDIO
PERFORMER "Dash Berlin"
TITLE "Till the Sky Falls Down (Arctic Moon Mix)"
INDEX 01 53:25:13

Rate Me On Mediography.by

Like Me On Facebook

Follow Me On Twitter

Follow us on Twitter