Saturday, April 21, 2018

Dance Legacy Volume 008

Mixcloud: 
Album Image: 
V.E.C.T.O.R. - Dance Legacy Volume 008
Track Listing: 

1. Junkie XL - Reshurc
2. Hatrixx - Miss You (Kobbe & Fabb'X Remix)
3. Deepsky Feat. Jes - Ghost (Filo & Peri Mix)
4. C-Jay & Mick Wilson - Darkism (Original Mix)
5. Perry O'Neil - Numb
6. RR Workshop - Electrolux
7. Snow Patrol - Chasing Cars (Blake Jarrell & Topher Jones Mix)
8. Cerf, Mitiska & Jaren - Beggin' You (Armin van Buuren Remix)
9. Paul van Dyk & Starkillers & Austin Leeds Feat. Ashley Tomberlin - New York City
10. De Loren & Colors - Nanga (Stereo Tribal Mix)
11. Futureshock - Sparc
12. Origene - Sanctuary
13. Marco V Feat. Jonathan Mendelsohn - Coming Back (Nic Chagall Remix)
14. George Acosta Feat. Tiff Lacey - I Know (Beat Service Proglifting Remix)
15. John '00' Fleming - New Beginning
16. John '00' Fleming - I'm Not Fooled (J00f Vs. Digital Blonde Mix)
17. Flash Brothers Feat. Tiff Lacey - Faith in Love (John '00' Fleming Remix)
18. Drax & Scott Mac - Angel (Katana Remix)
19. Mühle & Amesz - Bastard
20. Kenny Hayes - Daybreaker (Signum Instrumental Remix)
21. Mat Silver Vs. Tony Burt - Waimea (Alex M.O.R.P.H. Remix)
22. Madonna - What It Feels for a Girl (Above & Beyond 12" Club Mix)
23. Dash Berlin - Never Cry Again (Jorn van Deynhoven Remix)
24. PG2 - Forum of Love (DJ Danjo & R.Styles Remix)
25. Hoyaa - Rising Star (Original Mix)

Cue Sheet: 

PERFORMER "V.E.C.T.O.R."
TITLE "Dance Legacy Volume 008"
FILE "V.E.C.T.O.R. - Dance Legacy Volume 008.mp3" MP3

TRACK 01 AUDIO
PERFORMER "Junkie XL"
TITLE "Reshurc"
INDEX 01 00:00:00

TRACK 02 AUDIO
PERFORMER "Hatrixx"
TITLE "Miss You (Kobbe & Fabb'X Remix)"
INDEX 01 03:46:76

TRACK 03 AUDIO
PERFORMER "Deepsky"
TITLE "Ghost"
INDEX 01 08:38:21

TRACK 04 AUDIO
PERFORMER "C-Jay & Mick Wilson"
TITLE "Darkism (Original Mix)"
INDEX 01 12:58:35

TRACK 05 AUDIO
PERFORMER "Perry O'Neil"
TITLE "Numb"
INDEX 01 18:25:40

TRACK 06 AUDIO
PERFORMER "RR Workshop"
TITLE "Electrolux"
INDEX 01 24:07:31

TRACK 07 AUDIO
PERFORMER "Snow Patrol"
TITLE "Chasing Cars (Blake Jarrell & Topher Jones Mix)"
INDEX 01 29:04:63

TRACK 08 AUDIO
PERFORMER "Cerf, Mitiska & Jaren"
TITLE "Beggin' You (Armin van Buuren Remix)"
INDEX 01 35:29:32

TRACK 09 AUDIO
PERFORMER "Paul van Dyk & Starkillers & Austin Leeds Feat. Ashley Tomberlin"
TITLE "New York City"
INDEX 01 44:35:65

TRACK 10 AUDIO
PERFORMER "De Loren & Colors"
TITLE "Nanga (Stereo Tribal Mix)"
INDEX 01 51:54:48

TRACK 11 AUDIO
PERFORMER "Futureshock"
TITLE "Sparc"
INDEX 01 57:15:11

TRACK 12 AUDIO
PERFORMER "Origene"
TITLE "Sanctuary"
INDEX 01 64:03:15

TRACK 13 AUDIO
PERFORMER "Marco V Feat. Jonathan Mendelsohn"
TITLE "Coming Back (Nic Chagall Remix)"
INDEX 01 70:51:16

TRACK 14 AUDIO
PERFORMER "George Acosta Feat. Tiff Lacey"
TITLE "I Know (Beat Service Proglifting Remix)"
INDEX 01 78:48:47

TRACK 15 AUDIO
PERFORMER "John '00' Fleming"
TITLE "New Beginning"
INDEX 01 86:20:25

TRACK 16 AUDIO
PERFORMER "John '00' Fleming"
TITLE "I'm Not Fooled (J00f Vs. Digital Blonde Mix)"
INDEX 01 93:19:36

TRACK 17 AUDIO
PERFORMER "Flash Brothers Feat. Tiff Lacey"
TITLE "Faith in Love (John '00' Fleming Remix)"
INDEX 01 101:44:13

TRACK 18 AUDIO
PERFORMER "Drax & Scott Mac"
TITLE "Angel (Katana Remix)"
INDEX 01 109:54:42

TRACK 19 AUDIO
PERFORMER "Mühle & Amesz"
TITLE "Bastard"
INDEX 01 116:35:65

TRACK 20 AUDIO
PERFORMER "Kenny Hayes"
TITLE "Daybreaker (Signum Instrumental Remix)"
INDEX 01 122:34:85

TRACK 21 AUDIO
PERFORMER "Mat Silver Vs. Tony Burt"
TITLE "Waimea (Alex M.O.R.P.H. Remix)"
INDEX 01 128:45:00

TRACK 22 AUDIO
PERFORMER "Madonna"
TITLE "What It Feels for a Girl (Above & Beyond 12” Club Mix)"
INDEX 01 135:13:27

TRACK 23 AUDIO
PERFORMER "Dash Berlin"
TITLE "Never Cry Again (Jorn van Deynhoven Remix)"
INDEX 01 140:40:33

TRACK 24 AUDIO
PERFORMER "PG2"
TITLE "Forum of Love (DJ Danjo & R.Styles Remix)"
INDEX 01 147:18:47

TRACK 25 AUDIO
PERFORMER "Hoyaa"
TITLE "Rising Star (Original Mix)"
INDEX 01 154:49:78

Rate Me On Mediography.by

Like Me On Facebook

Follow Me On Twitter

Follow us on Twitter