Monday, June 18, 2018

Dance Legacy Volume 007

Mixcloud: 
Album Image: 
V.E.C.T.O.R. - Dance Legacy Volume 007
Track Listing: 

1. Nic Chagall Feat. Jonathan Mendelsohn - This Moment (Prog Mix)
2. Black Pearl - Bounty Island (DJ Shah's San Antonio Harbour Mix)
3. Rosie and the Goldbug - Heartbreak (Gareth Emery Remix)
4. Roger Shah Pres. Savannah - Body Lotion (Inspirations Mix)
5. Vincent de Moor - No Hesitation (VDM's 2007 Rework)
6. The Green Martian - Wizardry
7. Questia - Nexus Asia (Vincent de Moor Remix)
8. Li Kwan - Point Zero

Cue Sheet: 

PERFORMER "V.E.C.T.O.R."
TITLE "Dance Legacy Volume 007"
FILE "V.E.C.T.O.R. - Dance Legacy Volume 007.mp3" MP3

TRACK 01 AUDIO
PERFORMER "Nic Chagall Feat. Jonathan Mendelsohn"
TITLE "This Moment (Prog Mix)"
INDEX 01 00:00:00

TRACK 02 AUDIO
PERFORMER "Black Pearl"
TITLE "Bounty Island (DJ Shah's San Antonio Harbour Mix)"
INDEX 01 07:49:64

TRACK 03 AUDIO
PERFORMER "Rosie and the Goldbug"
TITLE "Heartbreak (Gareth Emery Remix)"
INDEX 01 15:18:96

TRACK 04 AUDIO
PERFORMER "Roger Shah Pres. Savannah"
TITLE "Body Lotion (Inspirations Mix)"
INDEX 01 23:54:27

TRACK 05 AUDIO
PERFORMER "Vincent de Moor"
TITLE "No Hesitation (VDM's 2007 Rework)"
INDEX 01 31:13:89

TRACK 06 AUDIO
PERFORMER "The Green Martian"
TITLE "Wizardry"
INDEX 01 37:18:96

TRACK 07 AUDIO
PERFORMER "Questia"
TITLE "Nexus Asia (Vincent de Moor Remix)"
INDEX 01 44:15:43

TRACK 08 AUDIO
PERFORMER "Li Kwan"
TITLE "Point Zero"
INDEX 01 48:57:58

Rate Me On Mediography.by

Like Me On Facebook

Follow Me On Twitter

Follow us on Twitter