Thursday, October 18, 2018

Dance Legacy Volume 006

Mixcloud: 
Album Image: 
V.E.C.T.O.R. - Dance Legacy Volume 006
Track Listing: 

1. Walsh & Coutre - Done with Love (Original Mix)
2. Armin van Buuren Feat. Nadia - Who Is Watching (DJ Remy Remix)
3. Orjan Nilsen - Vivida
4. Bart Claessen & Dave Schiemann - Madness (I Prefer This Mix)
5. Push - Back to the Essence (Ruben de Ronde Remix)
6. Simon Patterson - Bulldozer
7. Club Scene Investigators - Direct Dizko (Sander van Doorn Remix)
8. PG2 Vs. Katana - Transcentral (Original Mix)
9. Octagen & Arizona - Starburst

Cue Sheet: 

PERFORMER "V.E.C.T.O.R."
TITLE "Dance Legacy Volume 006"
FILE "V.E.C.T.O.R. - Dance Legacy Volume 006.mp3" MP3

TRACK 01 AUDIO
PERFORMER "Walsh & Coutre"
TITLE "Done with Love (Original Mix)"
INDEX 01 00:00:00

TRACK 02 AUDIO
PERFORMER "Armin van Buuren Feat. Nadia"
TITLE "Who Is Watching (DJ Remy Remix)"
INDEX 01 08:34:61

TRACK 03 AUDIO
PERFORMER "Orjan Nilsen"
TITLE "Vivida"
INDEX 01 14:21:36

TRACK 04 AUDIO
PERFORMER "Bart Claessen & Dave Schiemann"
TITLE "Madness (I Prefer This Mix)"
INDEX 01 20:50:94

TRACK 05 AUDIO
PERFORMER "Push"
TITLE "Back to the Essence (Ruben de Ronde Remix)"
INDEX 01 27:13:19

TRACK 06 AUDIO
PERFORMER "Simon Patterson"
TITLE "Bulldozer"
INDEX 01 32:07:85

TRACK 07 AUDIO
PERFORMER "Club Scene Investigators"
TITLE "Direct Dizko (Sander van Doorn Remix)"
INDEX 01 38:53:73

TRACK 08 AUDIO
PERFORMER "PG2 Vs. Katana"
TITLE "Transcentral (Original Mix)"
INDEX 01 45:05:16

TRACK 09 AUDIO
PERFORMER "Octagen & Arizona"
TITLE "Starburst"
INDEX 01 52:07:24

Rate Me On Mediography.by

Like Me On Facebook

Follow Me On Twitter

Follow us on Twitter