Thursday, October 18, 2018

Dance Legacy Volume 005

Mixcloud: 
Album Image: 
V.E.C.T.O.R. - Dance Legacy Volume 005
Track Listing: 

1. Moby - God Moving Over the Face of the Waters (Alternate Version)
2. UNKLE / Moby - In a State / God Moving Over the Face of the Waters
3. BT Feat. Jes - Every Other Way (Armin van Buuren Remix)
4. Harry 'Choo Choo' Romero - King of Drop (Original Mix)
5. Josh Gabriel Presents Winter Kills - Deep Down (Original Mix)
6. Chicane - Poppiholla (Club Mix)
7. Petibonum - Little Planet (Original Mix)
8. Kosmas Epsilon - Innocent Thoughts (Original Mix)
9. Matthew Dekay - Clearing the Mind (16 Bit Lolita's Remix)
10. C-Quence - Endorphine (Hydroid's Breaking the Law Remix)
11. Underworld - Rez
12. Underworld - Cowgirl (Bedrock Mix)
13. Ofra Haza - Love Song (M.I.K.E. Vs. Zigi Remix)
14. Chakra - Doors (The Space Brothers Dub)
15. M.I.K.E. - Turn Out the Lights (Original Mix)
16. M.I.K.E. - Voices from the Inside
17. Odyssee - Behind the Falls (Original Mix)
18. Matt Darey Presents Urban Astronauts Feat. Kate Louise Smith - See the Sun (Aurosonic Remix)
19. Attention Deficit - What (Original Mix)
20. R.A.G. - The Build-Up (It's Over Mix)
21. Pet Shop Boys - Always on My Mind (Deep Factory Private Anthem Mix)
22. Paul van Dyk Feat. Johnny McDaid - Home (Cosmic Gate Remix)
23. U2 - City of Blinding Lights (4 Strings Remix)

Cue Sheet: 

PERFORMER "V.E.C.T.O.R."
TITLE "Dance Legacy Volume 005"
FILE "V.E.C.T.O.R. - Dance Legacy Volume 005.mp3" MP3

TRACK 01 AUDIO
PERFORMER "Moby"
TITLE "God Moving Over the Face of the Waters (Alternate Version)"
INDEX 01 00:00:00

TRACK 02 AUDIO
PERFORMER "UNKLE / Moby"
TITLE "In a State / God Moving Over the Face of the Waters"
INDEX 01 06:34:51

TRACK 03 AUDIO
PERFORMER "BT Feat. Jes"
TITLE "Every Other Way (Armin van Buuren Remix)"
INDEX 01 16:48:31

TRACK 04 AUDIO
PERFORMER "Harry 'Choo Choo' Romero"
TITLE "King of Drop (Original Mix)"
INDEX 01 24:27:45

TRACK 05 AUDIO
PERFORMER "Josh Gabriel Presents Winter Kills"
TITLE "Deep Down (Original Mix)"
INDEX 01 29:36:95

TRACK 06 AUDIO
PERFORMER "Chicane"
TITLE "Poppiholla (Club Mix)"
INDEX 01 37:17:22

TRACK 07 AUDIO
PERFORMER "Petibonum"
TITLE "Little Planet (Original Mix)"
INDEX 01 45:35:88

TRACK 08 AUDIO
PERFORMER "Kosmas Epsilon"
TITLE "Innocent Thoughts (Original Mix)"
INDEX 01 54:00:05

TRACK 09 AUDIO
PERFORMER "Matthew Dekay"
TITLE "Clearing the Mind (16 Bit Lolita's Remix)"
INDEX 01 63:28:68

TRACK 10 AUDIO
PERFORMER "C-Quence"
TITLE "Endorphine (Hydroid's Breaking the Law Remix)"
INDEX 01 67:32:89

TRACK 11 AUDIO
PERFORMER "Underworld"
TITLE "Rez"
INDEX 01 74:39:36

TRACK 12 AUDIO
PERFORMER "Underworld"
TITLE "Cowgirl (Bedrock Mix)"
INDEX 01 82:11:55

TRACK 13 AUDIO
PERFORMER "Ofra Haza"
TITLE "Love Song (M.I.K.E. Vs. Zigi Remix)"
INDEX 01 89:36:49

TRACK 14 AUDIO
PERFORMER "Chakra"
TITLE "Doors (The Space Brothers Dub)"
INDEX 01 95:47:55

TRACK 15 AUDIO
PERFORMER "M.I.K.E."
TITLE "Turn Out the Lights (Original Mix)"
INDEX 01 99:39:70

TRACK 16 AUDIO
PERFORMER "M.I.K.E."
TITLE "Voices from the Inside"
INDEX 01 107:27:68

TRACK 17 AUDIO
PERFORMER "Odyssee"
TITLE "Behind the Falls (Original Mix)"
INDEX 01 113:17:92

TRACK 18 AUDIO
PERFORMER "Matt Darey Presents Urban Astronauts Feat. Kate Louise Smith"
TITLE "See the Sun (Aurosonic Remix)"
INDEX 01 119:14:97

TRACK 19 AUDIO
PERFORMER "Attention Deficit"
TITLE "What (Original Mix)"
INDEX 01 126:13:18

TRACK 20 AUDIO
PERFORMER "R.A.G."
TITLE "The Build-Up (It's Over Mix)"
INDEX 01 134:46:77

TRACK 21 AUDIO
PERFORMER "Pet Shop Boys"
TITLE "Always on My Mind (Deep Factory Private Anthem Mix)"
INDEX 01 142:15:48

TRACK 22 AUDIO
PERFORMER "Paul van Dyk Feat. Johnny McDaid"
TITLE "Home (Cosmic Gate Remix)"
INDEX 01 148:53:83

TRACK 23 AUDIO
PERFORMER "U2"
TITLE "City of Blinding Lights (4 Strings Remix)"
INDEX 01 156:22:61

Rate Me On Mediography.by

Like Me On Facebook

Follow Me On Twitter

Follow us on Twitter