Monday, June 18, 2018

Dance Legacy Volume 004

Mixcloud: 
Album Image: 
V.E.C.T.O.R. - Dance Legacy Volume 004
Track Listing: 

1. Linkin Park - Shadow of the Day (Blake Jarrell Extended Mix)
2. Perry O'Neil - Switch
3. Departure - She Turns
4. Andy Bagguley - Together as One (Michael Dow Remix)
5. Breakfast - The Sunlight
6. Mungo - Summer Blush (Aly & Fila Rework)
7. Ben Gold Feat. Senadee - Say the Words (Aly & Fila Mix)
8. Empyreal Sun - Twisted Reality

Cue Sheet: 

PERFORMER "V.E.C.T.O.R."
TITLE "Dance Legacy Volume 004"
FILE "V.E.C.T.O.R. - Dance Legacy Volume 004.mp3" MP3

TRACK 01 AUDIO
PERFORMER "Linkin Park"
TITLE "Shadow of the Day (Blake Jarrell Extended Mix)"
INDEX 01 00:00:00

TRACK 02 AUDIO
PERFORMER "Perry O'Neil"
TITLE "Switch"
INDEX 01 10:16:53

TRACK 03 AUDIO
PERFORMER "Departure"
TITLE "She Turns"
INDEX 01 18:59:40

TRACK 04 AUDIO
PERFORMER "Andy Bagguley"
TITLE "Together as One (Michael Dow Remix)"
INDEX 01 25:28:26

TRACK 05 AUDIO
PERFORMER "Breakfast"
TITLE "The Sunlight"
INDEX 01 33:33:03

TRACK 06 AUDIO
PERFORMER "Mungo"
TITLE "Summer Blush (Aly & Fila Rework)"
INDEX 01 42:01:16

TRACK 07 AUDIO
PERFORMER "Ben Gold Feat. Senadee"
TITLE "Say the Words (Aly & Fila Mix)"
INDEX 01 49:42:14

TRACK 08 AUDIO
PERFORMER "Empyreal Sun"
TITLE "Twisted Reality"
INDEX 01 56:43:25

Rate Me On Mediography.by

Like Me On Facebook

Follow Me On Twitter

Follow us on Twitter