Monday, August 20, 2018

Dance Legacy Volume 003

Mixcloud: 
Album Image: 
V.E.C.T.O.R. - Dance Legacy Volume 003
Track Listing: 

1. Above & Beyond - No One on Earth (Gabriel & Dresden Intro Mix)
2. Above & Beyond - Good for Me (Above & Beyond Club Mix)
3. Michael Dow - Ascent
4. Vincent de Moor - Sunflower (Vincent de Moor's 2008 Rework)
5. Randy Katana - Play It Louder (Original Mix)
6. Armin van Buuren - Control Freak
7. Natious - Amber (Oliver Lieb Remix)
8. Vincent de Moor - Green Heaven
9. L.S.G. - Netherworld 2005

Cue Sheet: 

PERFORMER "V.E.C.T.O.R."
TITLE "Dance Legacy Volume 003"
FILE "V.E.C.T.O.R. - Dance Legacy Volume 003.mp3" MP3

TRACK 01 AUDIO
PERFORMER "Above & Beyond"
TITLE "No One on Earth (Gabriel & Dresden Intro Mix)"
INDEX 01 00:00:00

TRACK 02 AUDIO
PERFORMER "Above & Beyond"
TITLE "Good for Me (Above & Beyond Club Mix)"
INDEX 01 09:38:69

TRACK 03 AUDIO
PERFORMER "Michael Dow"
TITLE "Ascent"
INDEX 01 16:33:24

TRACK 04 AUDIO
PERFORMER "Vincent de Moor"
TITLE "Sunflower (Vincent de Moor's 2008 Rework)"
INDEX 01 23:41:43

TRACK 05 AUDIO
PERFORMER "Randy Katana"
TITLE "Play It Louder (Original Mix)"
INDEX 01 30:16:54

TRACK 06 AUDIO
PERFORMER "Armin van Buuren"
TITLE "Control Freak"
INDEX 01 36:43:04

TRACK 07 AUDIO
PERFORMER "Natious"
TITLE "Amber (Oliver Lieb Remix)"
INDEX 01 41:45:96

TRACK 08 AUDIO
PERFORMER "Vincent de Moor"
TITLE "Green Heaven"
INDEX 01 45:53:72

TRACK 09 AUDIO
PERFORMER "L.S.G."
TITLE "Netherworld 2005"
INDEX 01 51:51:79

Rate Me On Mediography.by

Like Me On Facebook

Follow Me On Twitter

Follow us on Twitter