Monday, June 18, 2018

Dance Legacy Volume 002

Mixcloud: 
Album Image: 
V.E.C.T.O.R. - Dance Legacy Volume 002
Track Listing: 

1. Hans Zimmer & James Newton Howard Vs. Rank 1 Vs. Arnej - Why So Serious? Vs. L.E.D. There Be Light Vs. Dust in the Wind A.K.A. Smile When Your L.E.D. Dust Me (Demian Moreno Trance Energy Intro Re-Mashup)
2. Rex Mundi Feat. Susana - Nothing at All
3. Dakota - Chinook (Uplifting Mix)
4. Dash Berlin with Cerf, Mitiska & Jaren - Man on the Run (Original Vocal Mix)
5. Filo and Peri Feat. Eric Lumiere - Anthem (Original Mix)
6. M6 - Destination 6 (Original Mix)
7. Active Sight - The Search for Freedom
8. Adam White - Chimera (Original Mix)
9. U2 - Where the Streets Have No Name (NU-NRG Reconstruction Remix)

Cue Sheet: 

PERFORMER "V.E.C.T.O.R."
TITLE "Dance Legacy Volume 002"
FILE "V.E.C.T.O.R. - Dance Legacy Volume 002.mp3" MP3

TRACK 01 AUDIO
PERFORMER "Hans Zimmer & James Newton Howard Vs. Rank 1 Vs. Arnej"
TITLE "Why So Serious? Vs. L.E.D. There Be Light Vs. Dust in the Wind A.K.A. Smile When Your L.E.D. Dust Me (Demian Moreno Trance Energy Intro Remashup)"
INDEX 01 00:00:00

TRACK 02 AUDIO
PERFORMER "Rex Mundi Feat. Susana"
TITLE "Nothing at All"
INDEX 01 05:12:73

TRACK 03 AUDIO
PERFORMER "Dakota"
TITLE "Chinook (Uplifting Mix)"
INDEX 01 12:25:38

TRACK 04 AUDIO
PERFORMER "Dash Berlin with Cerf, Mitiska & Jaren"
TITLE "Man on the Run (Original Vocal Mix)"
INDEX 01 19:33:10

TRACK 05 AUDIO
PERFORMER "Filo and Peri Feat. Eric Lumiere"
TITLE "Anthem (Original Mix)"
INDEX 01 27:11:77

TRACK 06 AUDIO
PERFORMER "M6"
TITLE "Destination 6 (Original Mix)"
INDEX 01 33:40:68

TRACK 07 AUDIO
PERFORMER "Active Sight"
TITLE "The Search for Freedom"
INDEX 01 40:31:83

TRACK 08 AUDIO
PERFORMER "Adam White"
TITLE "Chimera (Original Mix)"
INDEX 01 48:03:55

TRACK 09 AUDIO
PERFORMER "U2"
TITLE "Where the Streets Have No Name (NU-NRG Reconstruction Remix)"
INDEX 01 53:49:85

Rate Me On Mediography.by

Like Me On Facebook

Follow Me On Twitter

Follow us on Twitter