Saturday, April 21, 2018

Dance Legacy Volume 001

Mixcloud: 
Album Image: 
V.E.C.T.O.R. - Dance Legacy Volume 001
Album Rating: 
Track Listing: 

1. Steve Angello & Sebastian Ingrosso - Umbrella (Marcus Schossow Remix)

2. Evanescence - Hello (Trifactor Vs Gabriel & Dresden Mix)

3. Coldplay - Clocks (Gabriel & Dresden Bootleg Mix)

4. Lange Vs Gareth Emery - Another You Another Me (Terranova & Austin Leeds Mix)

5. Sunlounger Feat. Zara - Lost (Club Mix)

6. Dash Berlin - Till The Sky Falls Down (Dub Mix)

7. Way Out West - The Fall (Richard Durand Remix)

8. Peter Martijn Wijnia Presents Majesta Vs DJ Shah Feat. Adrina Thorpe - Who Will Find Me In The End (Armin Van Buuren Mash Up)

Cue Sheet: 

PERFORMER "V.E.C.T.O.R."
TITLE "Dance Legacy Volume 001"
FILE "V.E.C.T.O.R. - Dance Legacy Volume 001.mp3" MP3
TRACK 01 AUDIO
PERFORMER "Steve Angello & Sebastian Ingrosso"
TITLE "Umbrella (Marcus Schossow Remix)"
INDEX 01 00:00:00
TRACK 02 AUDIO
PERFORMER "Evanescence"
TITLE "Hello (Trifactor Vs Gabriel & Dresden Mix)"
INDEX 01 07:01:27
TRACK 03 AUDIO
PERFORMER "Coldplay"
TITLE "Clocks (Gabriel & Dresden Bootleg Mix)"
INDEX 01 16:10:47
TRACK 04 AUDIO
PERFORMER "Lange Vs Gareth Emery"
TITLE "Another You Another Me (Terranova & Austin Leeds Mix)"
INDEX 01 24:20:68
TRACK 05 AUDIO
PERFORMER "Sunlounger Feat. Zara"
TITLE "Lost (Club Mix)"
INDEX 01 29:36:21
TRACK 06 AUDIO
PERFORMER "Dash Berlin"
TITLE "Till The Sky Falls Down (Dub Mix)"
INDEX 01 37:25:40
TRACK 07 AUDIO
PERFORMER "Way Out West"
TITLE "The Fall (Richard Durand Remix)"
INDEX 01 43:58:91
TRACK 08 AUDIO
PERFORMER "Peter Martijn Wijnia Presents Majesta Vs DJ Shah Feat. Adrina Thorpe"
TITLE "Who Will Find Me In The End (Armin Van Buuren Mash Up)"
INDEX 01 51:10:32

Rate Me On Mediography.by

Like Me On Facebook

Follow Me On Twitter

Follow us on Twitter